<?xml version="1.0" standalone="no"?>
<!DOCTYPE svg PUBLIC "-//W3C//DTD SVG 1.1//EN" "http://www.w3.org/Graphics/SVG/1.1/DTD/svg11.dtd" >
<svg xmlns="http://www.w3.org/2000/svg">
<metadata></metadata>
<defs>
<font id="proxima_nova_rgbold" horiz-adv-x="256" >
<font-face units-per-em="1000" ascent="790" descent="-210" />
<missing-glyph horiz-adv-x="500" />
<glyph unicode="&#xfb01;" horiz-adv-x="580" d="M11 372v111h80v26q0 77 45.5 122.5t117.5 45.5q54 0 92 -20l-26 -92q-17 12 -41 12q-28 0 -44 -18t-16 -50v-26h98v-111h-98v-372h-128v372h-80zM377 611q0 31 22.5 53t53.5 22q32 0 54 -22t22 -53t-22.5 -53.5t-53.5 -22.5t-53.5 22.5t-22.5 53.5zM390 0v483h127v-483 h-127z" />
<glyph unicode="&#xfb02;" horiz-adv-x="580" d="M11 372v111h80v26q0 77 45.5 122.5t117.5 45.5q54 0 92 -20l-26 -92q-17 12 -41 12q-28 0 -44 -18t-16 -50v-26h98v-111h-98v-372h-128v372h-80zM390 0v667h127v-667h-127z" />
<glyph unicode="&#xfb03;" horiz-adv-x="907" d="M11 372v111h80v26q0 77 45 122.5t118 45.5q84 0 126 -45l-48 -75q-20 20 -53 20q-27 0 -43.5 -17.5t-16.5 -50.5v-26h98v-111h-98v-372h-128v372h-80zM338 372v111h80v26q0 77 45 122.5t118 45.5q54 0 92 -20l-26 -92q-17 12 -41 12q-28 0 -44 -18t-16 -50v-26h98v-111 h-98v-372h-128v372h-80zM705 611q0 31 22.5 53t53.5 22q32 0 54 -22t22 -53t-22.5 -53.5t-53.5 -22.5t-53.5 22.5t-22.5 53.5zM718 0v483h127v-483h-127z" />
<glyph unicode="&#xfb04;" horiz-adv-x="907" d="M11 372v111h80v26q0 77 45 122.5t118 45.5q84 0 126 -45l-48 -75q-20 20 -53 20q-27 0 -43.5 -17.5t-16.5 -50.5v-26h98v-111h-98v-372h-128v372h-80zM338 372v111h80v26q0 77 45 122.5t118 45.5q54 0 92 -20l-26 -92q-17 12 -41 12q-28 0 -44 -18t-16 -50v-26h98v-111 h-98v-372h-128v372h-80zM718 0v667h127v-667h-127z" />
<glyph horiz-adv-x="0" />
<glyph horiz-adv-x="0" />
<glyph horiz-adv-x="333" />
<glyph unicode="&#xd;" horiz-adv-x="0" />
<glyph unicode=" " />
<glyph unicode="!" d="M48 70q0 33 23.5 57t56.5 24t57 -24t24 -57q0 -32 -24 -56t-57 -24t-56.5 24t-23.5 56zM51 667h153l-20 -450h-112z" />
<glyph unicode="&#x22;" horiz-adv-x="406" d="M44 608q0 28 20 48.5t49 20.5q28 0 48.5 -20.5t20.5 -48.5l-41 -233h-56q-41 214 -41 233zM225 608q0 28 20.5 48.5t48.5 20.5t48 -20t20 -49l-41 -233h-55q-41 214 -41 233z" />
<glyph unicode="#" horiz-adv-x="618" d="M17 169l26 81h98l54 166h-98l25 80h101l56 171h94l-56 -171h94l56 171h95l-58 -171h97l-24 -80h-100l-55 -166h101l-25 -81h-103l-56 -169h-95l58 169h-95l-57 -169h-94l57 169h-96zM235 250h93l55 166h-94z" />
<glyph unicode="$" horiz-adv-x="614" d="M30 94l77 108q66 -70 159 -86v158q-37 9 -62.5 17.5t-57 25t-50.5 36t-32 51t-13 70.5q0 78 58 134.5t157 66.5v93h95v-95q120 -13 203 -89l-79 -104q-52 47 -124 65v-141q37 -9 63 -18t57.5 -25.5t51 -36.5t33 -51.5t13.5 -70.5q0 -86 -56 -143t-162 -68v-91h-95v90 q-146 13 -236 104zM196 486q0 -37 70 -57v122q-33 -4 -51.5 -21.5t-18.5 -43.5zM361 116q35 7 54.5 26.5t19.5 43.5q0 40 -74 64v-134z" />
<glyph unicode="%" horiz-adv-x="757" d="M26 509q0 72 47 120t122 48q76 0 123 -48t47 -120q0 -71 -47 -117.5t-123 -46.5q-75 0 -122 46.5t-47 117.5zM116 509q0 -38 22.5 -62t56.5 -24q35 0 57 23.5t22 62.5q0 41 -22 65t-57 24t-57 -24t-22 -65zM130 0l426 667h76l-427 -667h-75zM393 153q0 72 47 120t122 48 t122.5 -48t47.5 -120q0 -71 -47.5 -118t-122.5 -47t-122 47t-47 118zM483 153q0 -40 22 -63.5t57 -23.5t57.5 23.5t22.5 63.5q0 41 -22.5 65t-57.5 24t-57 -24t-22 -65z" />
<glyph unicode="&#x26;" horiz-adv-x="646" d="M24 181q0 69 38.5 114t104.5 78q-44 83 -44 144q0 68 54 114t137 46q74 0 124.5 -38.5t50.5 -102.5q0 -36 -13 -65t-39.5 -51t-50 -35.5t-61.5 -31.5q5 -7 114 -140q40 62 61 129l102 -47q-42 -92 -93 -161q67 -72 129 -134h-162q-21 20 -50 50q-82 -62 -182 -62 q-96 0 -158 50t-62 143zM159 193q0 -47 30 -76t73 -29q49 0 96 34q-83 91 -141 173q-58 -41 -58 -102zM250 514q0 -35 29 -90q49 23 74.5 47t25.5 58q0 26 -17 41t-42 15q-30 0 -50 -20.5t-20 -50.5z" />
<glyph unicode="'" horiz-adv-x="225" d="M44 608q0 28 20 48.5t49 20.5q28 0 48.5 -20.5t20.5 -48.5l-41 -233h-56q-41 214 -41 233z" />
<glyph unicode="(" horiz-adv-x="297" d="M41 243q0 121 42.5 240.5t115.5 201.5l80 -60q-52 -95 -76.5 -184t-24.5 -198t24.5 -198t76.5 -182l-80 -62q-73 82 -115.5 201.5t-42.5 240.5z" />
<glyph unicode=")" horiz-adv-x="297" d="M17 -137q53 92 77.5 181t24.5 199t-24.5 199t-77.5 183l80 60q74 -83 117 -202t43 -240t-43.5 -240.5t-116.5 -201.5z" />
<glyph unicode="*" horiz-adv-x="351" d="M25 471l97 50l-97 50l31 55l93 -59l-5 110h63l-5 -110l92 59l32 -55l-97 -50l97 -50l-32 -54l-92 59l5 -110h-63l5 110l-93 -59z" />
<glyph unicode="+" horiz-adv-x="504" d="M29 298v79h180v195h87v-195h179v-79h-179v-203h-87v203h-180z" />
<glyph unicode="," d="M47 71q0 33 23 56.5t55 23.5q37 0 63.5 -27.5t26.5 -74.5q0 -55 -28 -103.5t-75 -82.5l-55 45q25 13 48 40.5t29 53.5q-9 -3 -19 -3q-29 0 -48.5 20t-19.5 52z" />
<glyph unicode="-" horiz-adv-x="300" d="M30 188v108h240v-108h-240z" />
<glyph unicode="." d="M47 70q0 33 24 57t57 24t57 -24t24 -57t-24 -57t-57 -24t-57 24t-24 57z" />
<glyph unicode="/" horiz-adv-x="329" d="M0 -20l237 707h92l-237 -707h-92z" />
<glyph unicode="0" horiz-adv-x="620" d="M34 333q0 90 28 166t92.5 127t155.5 51t155 -51t92.5 -127t28.5 -166t-28.5 -166t-92.5 -127.5t-155 -51.5t-155.5 51.5t-92.5 127.5t-28 166zM178 333q0 -99 32 -159t100 -60t99.5 60t31.5 159t-31.5 158.5t-99.5 59.5t-100 -59.5t-32 -158.5z" />
<glyph unicode="1" horiz-adv-x="411" d="M11 456l210 211h124v-667h-142v484l-111 -113z" />
<glyph unicode="2" horiz-adv-x="600" d="M32 568q47 54 115.5 81.5t141.5 27.5q110 0 182.5 -58t72.5 -155q0 -82 -64.5 -160.5t-202.5 -178.5h272v-125h-502v111q214 159 283.5 226.5t69.5 126.5q0 41 -32 64t-76 23q-105 0 -179 -77z" />
<glyph unicode="3" horiz-adv-x="587" d="M20 95l74 95q34 -35 84 -55.5t100 -20.5q60 0 93 23.5t33 61.5q0 40 -32 58.5t-102 18.5q-63 0 -83 -2v128q12 -1 83 -1q123 0 123 71q0 38 -34.5 58.5t-89.5 20.5q-97 0 -169 -69l-71 89q94 106 255 106q117 0 184.5 -49t67.5 -132q0 -60 -43 -100.5t-103 -51.5 q59 -6 107.5 -48.5t48.5 -111.5q0 -87 -72 -141.5t-191 -54.5q-88 0 -156 29.5t-107 77.5z" />
<glyph unicode="4" horiz-adv-x="597" d="M25 138v112l265 417h196v-404h86v-125h-86v-138h-142v138h-319zM164 263h180v278z" />
<glyph unicode="5" horiz-adv-x="608" d="M49 88l79 99q70 -73 177 -73q57 0 90.5 28.5t33.5 70.5q0 45 -32 72t-88 27q-83 0 -140 -54l-99 26v383h458v-125h-316v-163q56 56 147 56q89 0 151.5 -59t62.5 -157q0 -106 -73 -168.5t-194 -62.5q-165 0 -257 100z" />
<glyph unicode="6" horiz-adv-x="608" d="M34 332q0 155 83 250t228 95q116 0 197 -69l-64 -109q-55 52 -133 52q-73 0 -120 -54.5t-47 -134.5q0 -9 1 -14q25 36 72 61t99 25q95 0 161 -57.5t66 -159.5q0 -99 -71 -164t-184 -65q-144 0 -216 96t-72 248zM179 249q5 -56 38 -95.5t97 -39.5q54 0 86.5 30t32.5 68 q0 49 -36 74.5t-88 25.5q-80 0 -130 -63z" />
<glyph unicode="7" horiz-adv-x="545" d="M24 542v125h501v-99l-248 -568h-156l239 542h-336z" />
<glyph unicode="8" horiz-adv-x="606" d="M35 173q0 58 40 103.5t103 67.5q-132 46 -132 157q0 87 76.5 131.5t180.5 44.5q66 0 122 -17t95.5 -58.5t39.5 -100.5q0 -110 -133 -157q63 -22 103.5 -67.5t40.5 -103.5q0 -88 -78 -136.5t-190 -48.5q-113 0 -190.5 48t-77.5 137zM179 191q0 -36 35.5 -58.5t88.5 -22.5 q52 0 88 22.5t36 58.5q0 37 -40.5 60t-83.5 29q-43 -6 -83.5 -29t-40.5 -60zM190 479q0 -33 36 -53t77 -26q41 6 76.5 26t35.5 53q0 35 -31 55.5t-81 20.5t-81.5 -20.5t-31.5 -55.5z" />
<glyph unicode="9" horiz-adv-x="608" d="M30 449q0 99 71.5 164t184.5 65q97 0 163.5 -48t95 -123.5t28.5 -173.5q0 -154 -82.5 -249t-227.5 -95q-119 0 -196 69l63 109q55 -52 133 -52t122.5 55.5t44.5 132.5v15q-26 -36 -73 -61t-99 -25q-95 0 -161.5 57.5t-66.5 159.5zM175 454q0 -49 36 -74.5t87 -25.5 q80 0 131 62q-5 56 -38 96t-98 40q-54 0 -86 -30t-32 -68z" />
<glyph unicode=":" horiz-adv-x="251" d="M47 70q0 33 24 57t57 24t57 -24t24 -57t-24 -57t-57 -24t-57 24t-24 57zM47 409q0 33 24 57t57 24t57 -24t24 -57t-24 -57t-57 -24t-57 24t-24 57z" />
<glyph unicode=";" d="M47 74q0 33 23 56t55 23q37 0 63.5 -27.5t26.5 -74.5q0 -55 -28 -103.5t-75 -82.5l-55 45q25 14 48 42t29 53q-12 -4 -19 -4q-29 0 -48.5 20.5t-19.5 52.5zM47 409q0 33 24 57t57 24t57 -24t24 -57q0 -32 -24 -56.5t-57 -24.5t-57 24.5t-24 56.5z" />
<glyph unicode="&#x3c;" horiz-adv-x="504" d="M29 289v91l446 200v-94l-355 -152l355 -150v-94z" />
<glyph unicode="=" horiz-adv-x="504" d="M29 201v78h446v-78h-446zM29 388v80h446v-80h-446z" />
<glyph unicode="&#x3e;" horiz-adv-x="504" d="M29 90v94l355 150l-355 152v94l446 -200v-91z" />
<glyph unicode="?" horiz-adv-x="456" d="M9 580q83 97 219 97q96 0 152 -43.5t56 -114.5q0 -40 -17 -72t-41.5 -52t-49.5 -37t-42 -37t-17 -43q0 -26 18 -42l-109 -32q-33 36 -33 88q0 40 23 72t50 48t50 38t23 44q0 25 -19.5 41t-58.5 16q-71 0 -123 -62zM145 70q0 33 24 57t57 24t57 -24t24 -57t-24 -57 t-57 -24t-57 24t-24 57z" />
<glyph unicode="@" horiz-adv-x="783" d="M35 244q0 104 55.5 195.5t147.5 145t194 53.5q140 0 227.5 -89t87.5 -217q0 -116 -62 -181.5t-136 -65.5q-85 0 -98 80q-26 -37 -65 -58.5t-79 -21.5q-71 0 -113 47t-42 121q0 99 69 172t157 73q43 0 75.5 -18.5t49.5 -48.5l11 53h113l-51 -244q-3 -18 -3 -24 q0 -45 37 -45q35 0 64.5 41.5t29.5 119.5q0 119 -75.5 193t-200.5 74q-142 0 -248 -106.5t-106 -246.5q0 -118 80.5 -198t201.5 -80q96 0 183 55l21 -30q-98 -63 -208 -63q-136 0 -226.5 90.5t-90.5 223.5zM268 263q0 -39 22.5 -63.5t60.5 -24.5q63 0 111 65l25 117 q-25 51 -81 51q-58 0 -98 -44t-40 -101z" />
<glyph unicode="A" horiz-adv-x="684" d="M-5 0l258 667h178l257 -667h-162l-41 113h-286l-42 -113h-162zM238 238h208l-104 287z" />
<glyph unicode="B" horiz-adv-x="663" d="M66 0v667h351q91 0 141.5 -49.5t50.5 -120.5q0 -61 -33 -102t-82 -51q54 -8 91 -55t37 -109q0 -78 -51 -129t-143 -51h-362zM208 123h183q40 0 63 20.5t23 56.5q0 33 -23 55.5t-63 22.5h-183v-155zM208 400h178q36 0 57 20t21 52t-21.5 52.5t-56.5 20.5h-178v-145z" />
<glyph unicode="C" horiz-adv-x="687" d="M34 333q0 152 101.5 248.5t253.5 96.5q187 0 279 -163l-122 -60q-22 42 -64.5 69.5t-92.5 27.5q-91 0 -150 -62t-59 -157t59 -157t150 -62q50 0 92.5 27t64.5 70l122 -59q-95 -164 -279 -164q-152 0 -253.5 96.5t-101.5 248.5z" />
<glyph unicode="D" horiz-adv-x="718" d="M66 0v667h263q157 0 255.5 -92t98.5 -242t-98 -241.5t-256 -91.5h-263zM208 125h121q96 0 152.5 60t56.5 148q0 92 -55 150.5t-154 58.5h-121v-417z" />
<glyph unicode="E" horiz-adv-x="583" d="M66 0v667h472v-125h-330v-141h323v-125h-323v-151h330v-125h-472z" />
<glyph unicode="F" horiz-adv-x="571" d="M66 0v667h472v-125h-330v-141h323v-125h-323v-276h-142z" />
<glyph unicode="G" horiz-adv-x="720" d="M34 333q0 155 102.5 250t252.5 95q182 0 276 -149l-118 -64q-24 38 -65.5 62.5t-92.5 24.5q-91 0 -150 -62t-59 -157t59 -157t150 -62q42 0 81 15t61 36v80h-176v124h318v-256q-113 -126 -284 -126q-150 0 -252.5 96t-102.5 250z" />
<glyph unicode="H" horiz-adv-x="731" d="M66 0v667h142v-262h315v262h143v-667h-143v280h-315v-280h-142z" />
<glyph unicode="I" horiz-adv-x="274" d="M66 0v667h142v-667h-142z" />
<glyph unicode="J" horiz-adv-x="486" d="M6 53l62 109q50 -48 106 -48q47 0 75.5 29t28.5 78v446h142v-448q0 -114 -64 -172.5t-171 -58.5q-113 0 -179 65z" />
<glyph unicode="K" horiz-adv-x="636" d="M66 0v667h142v-298l236 298h175l-265 -313l283 -354h-175l-202 267l-52 -62v-205h-142z" />
<glyph unicode="L" horiz-adv-x="523" d="M66 0v667h142v-542h282v-125h-424z" />
<glyph unicode="M" horiz-adv-x="855" d="M66 0v667h199l162 -403l162 403h200v-667h-143v467l-188 -467h-62l-188 467v-467h-142z" />
<glyph unicode="N" horiz-adv-x="729" d="M66 0v667h146l309 -419v419h142v-667h-137l-318 435v-435h-142z" />
<glyph unicode="O" horiz-adv-x="765" d="M34 333q0 150 98.5 247.5t249.5 97.5q152 0 250.5 -97t98.5 -248t-98.5 -248t-250.5 -97q-151 0 -249.5 97.5t-98.5 247.5zM180 333q0 -95 55.5 -157t146.5 -62t147 62t56 157t-56 157t-147 62t-146.5 -62t-55.5 -157z" />
<glyph unicode="P" horiz-adv-x="624" d="M66 0v667h312q105 0 164.5 -61.5t59.5 -153.5q0 -91 -60 -153t-164 -62h-170v-237h-142zM208 362h151q43 0 70.5 24.5t27.5 65.5t-27.5 65.5t-70.5 24.5h-151v-180z" />
<glyph unicode="Q" horiz-adv-x="765" d="M34 333q0 150 98.5 247.5t249.5 97.5q152 0 250.5 -97t98.5 -248q0 -141 -87 -236l49 -57l-99 -81l-54 62q-74 -33 -158 -33q-151 0 -249.5 97.5t-98.5 247.5zM180 333q0 -95 55.5 -157t146.5 -62q35 0 70 11l-73 86l98 81l74 -87q34 56 34 128q0 95 -56 157t-147 62 t-146.5 -62t-55.5 -157z" />
<glyph unicode="R" horiz-adv-x="643" d="M66 0v667h312q103 0 163.5 -60t60.5 -155q0 -82 -42.5 -133t-103.5 -65l150 -254h-163l-131 237h-104v-237h-142zM208 362h149q44 0 72 24.5t28 65.5t-28 65.5t-72 24.5h-149v-180z" />
<glyph unicode="S" horiz-adv-x="600" d="M21 94l77 108q86 -90 212 -90q55 0 85.5 21.5t30.5 52.5q0 27 -28.5 45t-71 26t-92.5 23t-92.5 34t-71 60t-28.5 100q0 86 69 144.5t184 58.5q159 0 260 -93l-79 -104q-79 73 -194 73q-45 0 -70 -18t-25 -49q0 -24 28.5 -40.5t71 -24.5t92 -23.5t92 -35t71 -61 t28.5 -99.5q0 -96 -68.5 -155t-198.5 -59q-178 0 -282 106z" />
<glyph unicode="T" horiz-adv-x="582" d="M25 542v125h532v-125h-194v-542h-143v542h-195z" />
<glyph unicode="U" horiz-adv-x="733" d="M66 266v401h144v-396q0 -72 41 -114.5t116 -42.5t115.5 42.5t40.5 114.5v396h145v-400q0 -129 -76.5 -204t-224.5 -75t-224.5 75.5t-76.5 202.5z" />
<glyph unicode="V" horiz-adv-x="684" d="M-5 667h162l185 -513l184 513h162l-257 -667h-178z" />
<glyph unicode="W" horiz-adv-x="918" d="M1 667h159l117 -482l127 482h111l126 -482l116 482h160l-190 -667h-151l-117 458l-116 -458h-151z" />
<glyph unicode="X" horiz-adv-x="668" d="M-3 0l242 342l-227 325h169l153 -228l151 228h171l-227 -324l242 -343h-170l-167 244l-168 -244h-169z" />
<glyph unicode="Y" horiz-adv-x="645" d="M-5 667h162l166 -268l164 268h162l-255 -394v-273h-142v273z" />
<glyph unicode="Z" horiz-adv-x="592" d="M42 0v115l315 427h-315v125h501v-114l-315 -428h322v-125h-508z" />
<glyph unicode="[" horiz-adv-x="280" d="M47 -190v868h216v-85h-125v-698h125v-85h-216z" />
<glyph unicode="\" horiz-adv-x="329" d="M0 687h92l237 -707h-92z" />
<glyph unicode="]" horiz-adv-x="280" d="M17 -105h125v698h-125v85h216v-868h-216v85z" />
<glyph unicode="^" horiz-adv-x="441" d="M19 333l156 334h93l154 -334h-94l-108 247l-107 -247h-94z" />
<glyph unicode="_" horiz-adv-x="564" d="M-3 -40h570v-85h-570v85z" />
<glyph unicode="`" horiz-adv-x="251" d="M0 700h116l135 -144h-89z" />
<glyph unicode="a" horiz-adv-x="543" d="M32 148q0 78 50.5 117t117.5 39q103 0 153 -59v65q0 37 -29 59t-77 22q-79 0 -141 -57l-48 85q86 76 211 76q93 0 152 -43t59 -140v-312h-127v50q-52 -62 -153 -62q-65 0 -116.5 42.5t-51.5 117.5zM160 145q0 -33 26 -52t65 -19q71 0 102 42v60q-31 42 -102 42 q-39 0 -65 -19.5t-26 -53.5z" />
<glyph unicode="b" horiz-adv-x="586" d="M63 0v667h127v-246q57 74 149 74q94 0 154 -69t60 -185q0 -118 -60 -185.5t-154 -67.5q-90 0 -149 74v-62h-127zM190 155q16 -23 47 -38.5t62 -15.5q55 0 89 38.5t34 101.5t-34 102t-89 39q-31 0 -62 -16t-47 -40v-171z" />
<glyph unicode="c" horiz-adv-x="499" d="M32 242q0 111 72 182t184 71q128 0 191 -87l-83 -78q-35 52 -102 52q-58 0 -94.5 -38.5t-36.5 -101.5t36.5 -102t94.5 -39q65 0 102 52l83 -77q-63 -88 -191 -88q-112 0 -184 71t-72 183z" />
<glyph unicode="d" horiz-adv-x="586" d="M32 241q0 116 60 185t154 69q92 0 149 -74v246h128v-667h-128v62q-59 -74 -149 -74q-94 0 -154 67.5t-60 185.5zM163 241q0 -62 34 -101t88 -39q32 0 63 15.5t47 39.5v171q-16 24 -47 39.5t-63 15.5q-54 0 -88 -39t-34 -102z" />
<glyph unicode="e" horiz-adv-x="553" d="M32 242q0 107 70.5 180t179.5 73q108 0 175 -73.5t67 -192.5v-28h-359q6 -48 43 -80t96 -32q32 0 69.5 13t59.5 35l56 -82q-73 -67 -199 -67q-112 0 -185 70t-73 184zM163 287h238q-3 41 -32.5 74t-86.5 33q-54 0 -84 -32.5t-35 -74.5z" />
<glyph unicode="f" horiz-adv-x="327" d="M11 372v111h80v26q0 77 45 122.5t118 45.5q84 0 126 -45l-48 -75q-20 20 -53 20q-27 0 -43.5 -17.5t-16.5 -50.5v-26h98v-111h-98v-372h-128v372h-80z" />
<glyph unicode="g" horiz-adv-x="585" d="M32 249q0 116 59.5 181t153.5 65q90 0 149 -74v62h128v-450q0 -66 -23.5 -113t-63.5 -71t-82.5 -34.5t-91.5 -10.5q-125 0 -208 72l57 92q54 -60 151 -60q54 0 93.5 28.5t39.5 93.5v49q-60 -76 -149 -76q-94 0 -153.5 64.5t-59.5 181.5zM163 249q0 -61 33.5 -97t88.5 -36 q31 0 62 16t47 39v156q-16 24 -46.5 39.5t-62.5 15.5q-55 0 -88.5 -36t-33.5 -97z" />
<glyph unicode="h" horiz-adv-x="580" d="M63 0v667h127v-247q26 31 70.5 53t99.5 22q78 0 117.5 -40t39.5 -112v-343h-127v294q0 48 -23 68t-67 20q-67 0 -110 -57v-325h-127z" />
<glyph unicode="i" horiz-adv-x="253" d="M50 611q0 31 22.5 53t53.5 22q32 0 54 -22t22 -53t-22 -53.5t-54 -22.5q-31 0 -53.5 22.5t-22.5 53.5zM63 0v483h127v-483h-127z" />
<glyph unicode="j" horiz-adv-x="253" d="M-103 -162l35 95q30 -25 65 -25q30 0 48 20t18 59v496h127v-496q0 -85 -43.5 -134t-128.5 -49q-44 0 -68.5 7.5t-52.5 26.5zM50 611q0 31 22.5 53t53.5 22q32 0 54 -22t22 -53t-22 -53.5t-54 -22.5q-31 0 -53.5 22.5t-22.5 53.5z" />
<glyph unicode="k" horiz-adv-x="535" d="M63 0v667h127v-399l183 215h156l-191 -219l197 -264h-159l-128 186l-58 -62v-124h-127z" />
<glyph unicode="l" horiz-adv-x="253" d="M63 0v667h127v-667h-127z" />
<glyph unicode="m" horiz-adv-x="852" d="M63 0v483h127v-63q18 26 63 50.5t95 24.5q105 0 134 -88q23 36 68.5 62t97.5 26q68 0 105 -36.5t37 -109.5v-349h-128v305q0 77 -72 77q-31 0 -57.5 -17t-42.5 -39v-326h-128v305q0 77 -72 77q-30 0 -57 -17t-43 -40v-325h-127z" />
<glyph unicode="n" horiz-adv-x="579" d="M63 0v483h127v-63q63 75 169 75q78 0 117.5 -41t39.5 -113v-341h-127v292q0 90 -89 90q-69 0 -110 -57v-325h-127z" />
<glyph unicode="o" horiz-adv-x="574" d="M32 242q0 107 69.5 180t185.5 73t186 -73t70 -180t-70 -180.5t-186 -73.5t-185.5 73.5t-69.5 180.5zM164 242q0 -60 33 -100.5t90 -40.5t90.5 40.5t33.5 100.5q0 59 -33.5 99.5t-90.5 40.5t-90 -40.5t-33 -99.5z" />
<glyph unicode="p" horiz-adv-x="583" d="M63 -184v667h127v-61q57 73 149 73q95 0 154.5 -67.5t59.5 -185.5t-59.5 -186t-154.5 -68q-91 0 -149 74v-246h-127zM190 156q16 -23 47.5 -39t61.5 -16q55 0 88.5 39t33.5 102q0 62 -33.5 101t-88.5 39q-31 0 -62 -16t-47 -39v-171z" />
<glyph unicode="q" horiz-adv-x="583" d="M30 242q0 118 59.5 185.5t154.5 67.5q92 0 149 -73v61h128v-667h-128v246q-58 -74 -149 -74q-95 0 -154.5 68t-59.5 186zM162 242q0 -63 34 -102t88 -39q30 0 61.5 16t47.5 39v171q-16 23 -47 39t-62 16q-54 0 -88 -39t-34 -101z" />
<glyph unicode="r" horiz-adv-x="360" d="M63 0v483h127v-66q27 34 69 56t85 22v-124q-13 3 -35 3q-32 0 -68 -16t-51 -39v-319h-127z" />
<glyph unicode="s" horiz-adv-x="477" d="M21 63l55 89q28 -26 76 -46t91 -20q40 0 60.5 14t20.5 38q0 18 -21.5 29.5t-53 16.5t-69 15t-69 24t-53 44.5t-21.5 75.5q0 64 53 108t145 44q112 0 195 -66l-51 -87q-23 24 -61.5 40t-81.5 16q-34 0 -55 -13.5t-21 -34.5q0 -16 21 -26.5t53 -15.5t69 -15.5t69 -25 t53 -46.5t21 -78q0 -68 -55.5 -111.5t-153.5 -43.5q-63 0 -120.5 20t-95.5 55z" />
<glyph unicode="t" horiz-adv-x="338" d="M8 372v111h80v132h128v-132h98v-111h-98v-218q0 -23 12 -38t32 -15q30 0 44 14l27 -96q-35 -31 -106 -31q-67 0 -102 34t-35 98v252h-80z" />
<glyph unicode="u" horiz-adv-x="579" d="M63 140v343h127v-293q0 -89 89 -89q67 0 110 55v327h127v-483h-127v61q-65 -73 -170 -73q-78 0 -117 40t-39 112z" />
<glyph unicode="v" horiz-adv-x="513" d="M-6 483h136l126 -336l126 336h137l-194 -483h-137z" />
<glyph unicode="w" horiz-adv-x="769" d="M0 483h132l90 -325l106 325h113l106 -325l90 325h132l-147 -483h-135l-102 329l-102 -329h-136z" />
<glyph unicode="x" horiz-adv-x="504" d="M0 0l171 248l-161 235h142l100 -149l99 149h142l-162 -235l173 -248h-142l-110 163l-111 -163h-141z" />
<glyph unicode="y" horiz-adv-x="513" d="M-6 483h136l126 -336l126 336h137l-227 -562q-25 -64 -70 -89.5t-113 -27.5q-35 0 -63 7l19 114q18 -8 40 -8q51 0 67 35l18 41z" />
<glyph unicode="z" horiz-adv-x="479" d="M42 0v95l218 277h-218v111h390v-92l-221 -280h225v-111h-394z" />
<glyph unicode="{" horiz-adv-x="288" d="M3 208v72q25 0 38.5 19t13.5 48v171q0 71 46 115.5t109 44.5h61v-85h-61q-26 0 -44 -20.5t-18 -53.5v-185q0 -70 -46 -90q46 -20 46 -90v-184q0 -33 18 -54t44 -21h61v-85h-61q-63 0 -109 44t-46 115v172q0 29 -13.5 48t-38.5 19z" />
<glyph unicode="|" horiz-adv-x="216" d="M66 -20v707h85v-707h-85z" />
<glyph unicode="}" horiz-adv-x="288" d="M17 -105h61q26 0 44.5 21t18.5 54v184q0 70 46 90q-46 20 -46 90v185q0 33 -18.5 53.5t-44.5 20.5h-61v85h61q63 0 109 -44.5t46 -115.5v-171q0 -29 13.5 -48t38.5 -19v-72q-25 0 -38.5 -19t-13.5 -48v-172q0 -71 -46 -115t-109 -44h-61v85z" />
<glyph unicode="~" horiz-adv-x="510" d="M26 422q4 51 12 89.5t24 76t44.5 58t68.5 20.5q36 0 60.5 -18t35.5 -44t19 -52.5t18.5 -44.5t26.5 -18q49 0 63 178l86 -10q-4 -52 -12 -90t-23.5 -76t-44.5 -58.5t-69 -20.5q-44 0 -71 27.5t-35.5 60.5t-21.5 60.5t-32 27.5q-48 0 -62 -176z" />
<glyph unicode="&#xa0;" />
<glyph unicode="&#xa1;" d="M47 414q0 32 23.5 56t56.5 24t57 -24t24 -56q0 -33 -24 -57.5t-57 -24.5t-56.5 24.5t-23.5 57.5zM51 -184l20 449h113l21 -449h-154z" />
<glyph unicode="&#xa2;" horiz-adv-x="499" d="M32 242q0 98 57.5 166.5t151.5 82.5v74h92v-73q95 -15 146 -84l-83 -78q-25 36 -63 46v-270q37 11 63 47l83 -77q-51 -72 -146 -85v-91h-92v92q-94 14 -151.5 82.5t-57.5 167.5zM163 242q0 -47 21 -81.5t57 -49.5v261q-36 -15 -57 -49t-21 -81z" />
<glyph unicode="&#xa3;" horiz-adv-x="550" d="M23 269v81h68q-46 63 -46 120q0 91 74 149t169 58q169 0 232 -121l-113 -66q-13 32 -40.5 51.5t-61.5 19.5q-45 0 -75 -26t-30 -68q0 -14 2 -26.5t9 -27t10 -20t15 -23.5t13 -20h144v-81h-113q0 -3 0.5 -9.5t0.5 -9.5q0 -34 -18 -64t-46 -47q21 7 49 7q30 0 68 -16.5 t62 -16.5q59 0 86 37l56 -113q-48 -50 -147 -50q-47 0 -100.5 22t-80.5 22q-47 0 -116 -38l-48 97q109 53 109 125q0 25 -12 54h-120z" />
<glyph unicode="&#xa4;" horiz-adv-x="623" d="M23 547l76 74l76 -76q60 34 136 34q74 0 136 -34l76 76l76 -75l-73 -73q41 -63 41 -140q0 -79 -42 -141l74 -71l-76 -74l-75 73q-59 -34 -137 -34t-138 35l-73 -74l-76 74l73 73q-40 62 -40 139t40 139zM184 333q0 -56 34 -94.5t93 -38.5q60 0 94 38t34 95q0 56 -34 94 t-94 38q-59 0 -93 -38t-34 -94z" />
<glyph unicode="&#xa5;" horiz-adv-x="645" d="M-5 667h162l166 -268l164 268h162l-204 -315h178v-79h-229v-80h229v-78h-229v-115h-142v115h-228v78h228v80h-228v79h176z" />
<glyph unicode="&#xa6;" horiz-adv-x="216" d="M66 -20v316h85v-316h-85zM66 371v316h85v-316h-85z" />
<glyph unicode="&#xa7;" horiz-adv-x="484" d="M23 -2l53 80q29 -29 72 -50t89 -21q40 0 63.5 15t23.5 43q0 22 -21.5 36t-53 20.5t-69 17.5t-69 24.5t-53 43.5t-21.5 74q0 47 29 79t69 46q-98 37 -98 126q0 62 55.5 103.5t142.5 41.5q124 0 194 -68l-50 -75q-54 54 -139 54q-37 0 -58.5 -14.5t-21.5 -39.5 q0 -23 29.5 -35.5t71.5 -21t84 -21t71.5 -45.5t29.5 -85q0 -86 -83 -128q83 -36 83 -123q0 -73 -58 -114.5t-151 -41.5q-127 0 -214 79zM160 300q0 -32 27 -46.5t76 -25.5q58 25 58 74q0 53 -83 72q-43 -10 -60.5 -28t-17.5 -46z" />
<glyph unicode="&#xa8;" horiz-adv-x="295" d="M-26 611q0 28 20 47.5t48 19.5t47.5 -19.5t19.5 -47.5t-19.5 -48t-47.5 -20t-48 19.5t-20 48.5zM185 611q0 28 20 47.5t48 19.5t48 -19.5t20 -47.5t-20 -48t-48 -20t-48 20t-20 48z" />
<glyph unicode="&#xa9;" horiz-adv-x="778" d="M44 334q0 143 101 244t244 101t244 -101t101 -244t-101 -244t-244 -101t-244 101.5t-101 243.5zM80 334q0 -127 91 -218t218 -91t218 91t91 218q0 128 -91 218.5t-218 90.5t-218 -91t-91 -218zM186 335q0 90 60.5 150t147.5 60q92 0 148 -66l-31 -31q-42 57 -117 57 q-67 0 -114.5 -48t-47.5 -122q0 -73 47.5 -122.5t114.5 -49.5q75 0 118 58l31 -30q-58 -68 -149 -68q-87 0 -147.5 60.5t-60.5 151.5z" />
<glyph unicode="&#xaa;" horiz-adv-x="385" d="M31 422q0 48 33 74.5t77 26.5q68 0 102 -38v40q0 25 -19 39.5t-50 14.5q-53 0 -92 -41l-35 60q59 50 143 50q63 0 104 -29t41 -96v-197h-92v32q-36 -40 -102 -40q-44 0 -77 27.5t-33 76.5zM122 422q0 -22 16.5 -34.5t40.5 -12.5q43 0 64 29v36q-21 27 -64 27 q-24 0 -40.5 -12t-16.5 -33z" />
<glyph unicode="&#xab;" horiz-adv-x="527" d="M30 243l160 177h117l-160 -177l160 -180h-117zM220 243l160 177h117l-160 -177l160 -180h-117z" />
<glyph unicode="&#xac;" horiz-adv-x="515" d="M29 388v80h446v-267h-81v187h-365z" />
<glyph unicode="&#xad;" horiz-adv-x="300" d="M30 188v108h240v-108h-240z" />
<glyph unicode="&#xae;" horiz-adv-x="494" d="M35 465q0 88 62 150t150 62q89 0 150.5 -61.5t61.5 -150.5q0 -88 -62 -150t-150 -62t-150 62t-62 150zM67 465q0 -74 52.5 -127t127.5 -53q74 0 127 53t53 127q0 75 -53 127.5t-127 52.5q-75 0 -127.5 -52.5t-52.5 -127.5zM166 343v243h99q32 0 55.5 -20.5t23.5 -53.5 q0 -35 -22.5 -53.5t-39.5 -18.5l65 -97h-42l-63 96h-42v-96h-34zM200 470h65q17 0 30.5 12t13.5 30q0 19 -13.5 31.5t-30.5 12.5h-65v-86z" />
<glyph unicode="&#xaf;" horiz-adv-x="363" d="M0 562v72h363v-72h-363z" />
<glyph unicode="&#xb0;" horiz-adv-x="311" d="M20 541q0 56 39.5 96t95.5 40t95.5 -40t39.5 -96t-39.5 -95t-95.5 -39t-95.5 39t-39.5 95zM90 541q0 -27 18.5 -46t46.5 -19q27 0 46.5 19t19.5 46q0 28 -19.5 47.5t-46.5 19.5q-28 0 -46.5 -19.5t-18.5 -47.5z" />
<glyph unicode="&#xb1;" horiz-adv-x="504" d="M29 0v78h446v-78h-446zM29 326v78h180v197h87v-197h179v-78h-179v-204h-87v204h-180z" />
<glyph unicode="&#xb2;" horiz-adv-x="397" d="M35 761q59 66 161 66q71 0 116 -33t45 -92q0 -47 -40.5 -93.5t-131.5 -110.5h175v-77h-314v70q131 92 173.5 131.5t42.5 72.5q0 27 -19 41t-49 14q-33 0 -63 -15t-46 -35z" />
<glyph unicode="&#xb3;" horiz-adv-x="397" d="M32 477l47 63q46 -49 115 -49q35 0 54 13t19 34q0 49 -88 49q-39 0 -45 -1v76q9 -1 44 -1q82 0 82 45q0 44 -73 44q-61 0 -105 -44l-45 57q59 64 160 64q75 0 117 -29.5t42 -79.5q0 -35 -26 -60t-63 -31q35 -3 65.5 -28.5t30.5 -66.5q0 -53 -45.5 -85.5t-120.5 -32.5 q-111 0 -165 63z" />
<glyph unicode="&#xb4;" horiz-adv-x="251" d="M0 556l134 144h117l-162 -144h-89z" />
<glyph unicode="&#xb5;" horiz-adv-x="593" d="M63 -184v667h127v-293q0 -90 90 -90q65 0 109 56v327h127v-338q0 -21 11 -32.5t29 -11.5q9 0 19 2l9 -108q-26 -7 -59 -7q-104 0 -130 86q-22 -38 -57.5 -62t-77.5 -24q-49 0 -70 28v-200h-127z" />
<glyph unicode="&#xb6;" horiz-adv-x="449" d="M27 495q0 71 50.5 121.5t121.5 50.5h204v-767h-63v705h-78v-705h-63v423q-71 0 -121.5 50.5t-50.5 121.5z" />
<glyph unicode="&#xb7;" d="M47 244q0 33 24 57t57 24t57 -24t24 -57q0 -32 -24 -56t-57 -24t-57 24t-24 56z" />
<glyph unicode="&#xb8;" horiz-adv-x="221" d="M0 -164l25 51q38 -29 81 -29q22 0 37 8.5t15 24.5q0 26 -29 26q-18 0 -32 -14l-46 26l30 82h63l-26 -62q17 10 36 10q28 0 47.5 -19.5t19.5 -50.5q0 -39 -32 -62t-79 -23q-70 0 -110 32z" />
<glyph unicode="&#xb9;" horiz-adv-x="286" d="M7 687l136 134h83v-400h-97v277l-68 -69z" />
<glyph unicode="&#xba;" horiz-adv-x="405" d="M30 483q0 69 47.5 117t124.5 48q78 0 125.5 -48t47.5 -117t-47.5 -117t-125.5 -48q-77 0 -124.5 48t-47.5 117zM125 483q0 -42 20.5 -66.5t56.5 -24.5t57 24.5t21 66.5q0 41 -20.5 65t-57.5 24q-36 0 -56.5 -23.5t-20.5 -65.5z" />
<glyph unicode="&#xbb;" horiz-adv-x="527" d="M30 63l160 180l-160 177h117l160 -177l-160 -180h-117zM220 63l160 180l-160 177h117l160 -177l-160 -180h-117z" />
<glyph unicode="&#xbc;" horiz-adv-x="833" d="M7 533l136 134h83v-400h-97v277l-68 -69zM138 0l426 667h77l-427 -667h-76zM464 86v65l158 249h133v-239h53v-75h-53v-86h-95v86h-196zM559 161h101v158z" />
<glyph unicode="&#xbd;" horiz-adv-x="867" d="M7 533l136 134h83v-400h-97v277l-68 -69zM138 0l426 667h77l-427 -667h-76zM504 340q59 66 161 66q71 0 116 -33t45 -92q0 -47 -40.5 -93.5t-131.5 -110.5h175v-77h-314v70q131 92 173.5 131.5t42.5 72.5q0 27 -19 41t-49 14q-33 0 -63 -15t-46 -35z" />
<glyph unicode="&#xbe;" horiz-adv-x="921" d="M32 323l47 63q46 -49 115 -49q35 0 54 13t19 34q0 49 -88 49q-39 0 -45 -1v76q9 -1 44 -1q82 0 82 45q0 44 -73 44q-61 0 -105 -44l-45 57q59 64 160 64q75 0 117 -29.5t42 -79.5q0 -35 -26 -60t-63 -31q35 -3 65.5 -28.5t30.5 -66.5q0 -53 -45.5 -85.5t-120.5 -32.5 q-111 0 -165 63zM225 0l426 667h77l-427 -667h-76zM552 86v65l158 249h133v-239h53v-75h-53v-86h-95v86h-196zM647 161h101v158z" />
<glyph unicode="&#xbf;" horiz-adv-x="398" d="M19 -37q0 49 26.5 87t57.5 57t57.5 44.5t26.5 52.5q0 26 -19 42l109 31q34 -34 34 -88q0 -40 -23 -71.5t-50.5 -48t-50.5 -38.5t-23 -44q0 -24 20 -40t59 -16q72 0 123 61l81 -91q-84 -96 -220 -96q-95 0 -151.5 43.5t-56.5 114.5zM149 413q0 33 24 57t57 24t57 -24 t24 -57t-24 -57t-57 -24t-57 24t-24 57z" />
<glyph unicode="&#xc0;" horiz-adv-x="684" d="M-5 0l258 667h178l257 -667h-162l-41 113h-286l-42 -113h-162zM155 867h116l135 -144h-89zM238 238h208l-104 287z" />
<glyph unicode="&#xc1;" horiz-adv-x="684" d="M-5 0l258 667h178l257 -667h-162l-41 113h-286l-42 -113h-162zM238 238h208l-104 287zM279 723l134 144h117l-162 -144h-89z" />
<glyph unicode="&#xc2;" horiz-adv-x="684" d="M-5 0l258 667h178l257 -667h-162l-41 113h-286l-42 -113h-162zM193 723l92 144h114l94 -144h-78l-73 89l-71 -89h-78zM238 238h208l-104 287z" />
<glyph unicode="&#xc3;" horiz-adv-x="684" d="M-5 0l258 667h178l257 -667h-162l-41 113h-286l-42 -113h-162zM179 727q0 64 28 99t80 35q22 0 40.5 -10.5t28 -23t22.5 -23t25 -10.5q36 0 36 61h67q0 -64 -27.5 -99t-79.5 -35q-29 0 -50 17t-36.5 34t-30.5 17q-36 0 -36 -62h-67zM238 238h208l-104 287z" />
<glyph unicode="&#xc4;" horiz-adv-x="684" d="M-5 0l258 667h178l257 -667h-162l-41 113h-286l-42 -113h-162zM169 778q0 28 20 47.5t48 19.5t47.5 -19.5t19.5 -47.5t-19.5 -48t-47.5 -20q-29 0 -48.5 20t-19.5 48zM238 238h208l-104 287zM380 778q0 28 20 47.5t48 19.5t48 -19.5t20 -47.5t-20 -48t-48 -20t-48 20 t-20 48z" />
<glyph unicode="&#xc5;" horiz-adv-x="684" d="M-5 0l258 667h178l257 -667h-162l-41 113h-286l-42 -113h-162zM238 238h208l-104 287zM238 793q0 43 31 74.5t74 31.5t73.5 -31.5t30.5 -74.5q0 -44 -30.5 -74.5t-73.5 -30.5t-74 31t-31 74zM296 793q0 -19 14 -33t33 -14t32.5 14t13.5 33q0 20 -13.5 33.5t-32.5 13.5 t-33 -14t-14 -33z" />
<glyph unicode="&#xc6;" horiz-adv-x="968" d="M-9 0l406 667h529v-125h-329v-141h322v-125h-322v-151h329v-125h-472v113h-235l-66 -113h-162zM287 238h167v287z" />
<glyph unicode="&#xc7;" horiz-adv-x="687" d="M34 333q0 152 101.5 248.5t253.5 96.5q187 0 279 -163l-122 -60q-22 42 -64.5 69.5t-92.5 27.5q-91 0 -150 -62t-59 -157t59 -157t150 -62q50 0 92.5 27t64.5 70l122 -59q-89 -155 -262 -163l-15 -36q17 10 36 10q28 0 47.5 -19.5t19.5 -50.5q0 -39 -32 -62t-79 -23 q-70 0 -110 32l25 51q38 -29 81 -29q22 0 37 8.5t15 24.5q0 26 -29 26q-18 0 -32 -14l-46 26l21 58q-136 14 -223.5 108t-87.5 234z" />
<glyph unicode="&#xc8;" horiz-adv-x="583" d="M66 0v667h472v-125h-330v-141h323v-125h-323v-151h330v-125h-472zM113 867h116l135 -144h-89z" />
<glyph unicode="&#xc9;" horiz-adv-x="583" d="M66 0v667h472v-125h-330v-141h323v-125h-323v-151h330v-125h-472zM238 723l134 144h117l-162 -144h-89z" />
<glyph unicode="&#xca;" horiz-adv-x="583" d="M66 0v667h472v-125h-330v-141h323v-125h-323v-151h330v-125h-472zM152 723l92 144h114l94 -144h-78l-73 89l-71 -89h-78z" />
<glyph unicode="&#xcb;" horiz-adv-x="583" d="M66 0v667h472v-125h-330v-141h323v-125h-323v-151h330v-125h-472zM129 778q0 28 20 47.5t48 19.5t47.5 -19.5t19.5 -47.5t-19.5 -48t-47.5 -20q-29 0 -48.5 20t-19.5 48zM340 778q0 28 20 47.5t48 19.5t48 -19.5t20 -47.5t-20 -48t-48 -20t-48 20t-20 48z" />
<glyph unicode="&#xcc;" horiz-adv-x="274" d="M-50 867h116l135 -144h-89zM66 0v667h142v-667h-142z" />
<glyph unicode="&#xcd;" horiz-adv-x="274" d="M66 0v667h142v-667h-142zM75 723l134 144h117l-162 -144h-89z" />
<glyph unicode="&#xce;" horiz-adv-x="274" d="M-13 723l92 144h114l94 -144h-78l-73 89l-71 -89h-78zM66 0v667h142v-667h-142z" />
<glyph unicode="&#xcf;" horiz-adv-x="274" d="M-36 778q0 28 20 47.5t48 19.5t47.5 -19.5t19.5 -47.5t-19.5 -48t-47.5 -20t-48 20t-20 48zM66 0v667h142v-667h-142zM175 778q0 28 20 47.5t48 19.5t48 -19.5t20 -47.5t-20 -48t-48 -20t-48 20t-20 48z" />
<glyph unicode="&#xd0;" horiz-adv-x="742" d="M8 277v105h83v285h263q157 0 255.5 -92t98.5 -242t-98 -241.5t-256 -91.5h-263v277h-83zM233 125h121q96 0 152.5 60t56.5 148q0 92 -55 150.5t-154 58.5h-121v-160h149v-105h-149v-152z" />
<glyph unicode="&#xd1;" horiz-adv-x="729" d="M66 0v667h146l309 -419v419h142v-667h-137l-318 435v-435h-142zM200 727q0 64 28 99t80 35q22 0 40.5 -10.5t28 -23t22.5 -23t25 -10.5q36 0 36 61h67q0 -64 -27.5 -99t-79.5 -35q-29 0 -50 17t-36.5 34t-30.5 17q-36 0 -36 -62h-67z" />
<glyph unicode="&#xd2;" horiz-adv-x="765" d="M34 333q0 150 98.5 247.5t249.5 97.5q152 0 250.5 -97t98.5 -248t-98.5 -248t-250.5 -97q-151 0 -249.5 97.5t-98.5 247.5zM180 333q0 -95 55.5 -157t146.5 -62t147 62t56 157t-56 157t-147 62t-146.5 -62t-55.5 -157zM196 867h116l135 -144h-89z" />
<glyph unicode="&#xd3;" horiz-adv-x="765" d="M34 333q0 150 98.5 247.5t249.5 97.5q152 0 250.5 -97t98.5 -248t-98.5 -248t-250.5 -97q-151 0 -249.5 97.5t-98.5 247.5zM180 333q0 -95 55.5 -157t146.5 -62t147 62t56 157t-56 157t-147 62t-146.5 -62t-55.5 -157zM319 723l134 144h117l-162 -144h-89z" />
<glyph unicode="&#xd4;" horiz-adv-x="765" d="M34 333q0 150 98.5 247.5t249.5 97.5q152 0 250.5 -97t98.5 -248t-98.5 -248t-250.5 -97q-151 0 -249.5 97.5t-98.5 247.5zM180 333q0 -95 55.5 -157t146.5 -62t147 62t56 157t-56 157t-147 62t-146.5 -62t-55.5 -157zM235 723l92 144h114l94 -144h-78l-73 89l-71 -89 h-78z" />
<glyph unicode="&#xd5;" horiz-adv-x="765" d="M34 333q0 150 98.5 247.5t249.5 97.5q152 0 250.5 -97t98.5 -248t-98.5 -248t-250.5 -97q-151 0 -249.5 97.5t-98.5 247.5zM180 333q0 -95 55.5 -157t146.5 -62t147 62t56 157t-56 157t-147 62t-146.5 -62t-55.5 -157zM219 727q0 64 28 99t80 35q22 0 40.5 -10.5t28 -23 t22.5 -23t25 -10.5q36 0 36 61h67q0 -64 -27.5 -99t-79.5 -35q-29 0 -50 17t-36.5 34t-30.5 17q-36 0 -36 -62h-67z" />
<glyph unicode="&#xd6;" horiz-adv-x="765" d="M34 333q0 150 98.5 247.5t249.5 97.5q152 0 250.5 -97t98.5 -248t-98.5 -248t-250.5 -97q-151 0 -249.5 97.5t-98.5 247.5zM180 333q0 -95 55.5 -157t146.5 -62t147 62t56 157t-56 157t-147 62t-146.5 -62t-55.5 -157zM210 778q0 28 20 47.5t48 19.5t47.5 -19.5 t19.5 -47.5t-19.5 -48t-47.5 -20t-48 20t-20 48zM421 778q0 28 20 47.5t48 19.5t48 -19.5t20 -47.5t-20 -48t-48 -20t-48 20t-20 48z" />
<glyph unicode="&#xd7;" horiz-adv-x="504" d="M55 192l141 142l-141 141l57 56l140 -142l141 142l56 -56l-141 -141l141 -142l-56 -55l-141 141l-140 -141z" />
<glyph unicode="&#xd8;" horiz-adv-x="765" d="M34 333q0 150 98.5 247.5t249.5 97.5q94 0 173 -41l23 30h102l-58 -76q109 -99 109 -258q0 -151 -98.5 -248t-250.5 -97q-103 0 -184 47l-27 -35h-102l64 84q-99 97 -99 249zM180 333q0 -79 39 -137l255 335q-44 21 -92 21q-91 0 -146.5 -62t-55.5 -157zM278 141 q46 -27 104 -27q91 0 147 62t56 157q0 88 -48 147z" />
<glyph unicode="&#xd9;" horiz-adv-x="733" d="M66 266v401h144v-396q0 -72 41 -114.5t116 -42.5t115.5 42.5t40.5 114.5v396h145v-400q0 -129 -76.5 -204t-224.5 -75t-224.5 75.5t-76.5 202.5zM180 867h116l135 -144h-89z" />
<glyph unicode="&#xda;" horiz-adv-x="733" d="M66 266v401h144v-396q0 -72 41 -114.5t116 -42.5t115.5 42.5t40.5 114.5v396h145v-400q0 -129 -76.5 -204t-224.5 -75t-224.5 75.5t-76.5 202.5zM304 723l134 144h117l-162 -144h-89z" />
<glyph unicode="&#xdb;" horiz-adv-x="733" d="M66 266v401h144v-396q0 -72 41 -114.5t116 -42.5t115.5 42.5t40.5 114.5v396h145v-400q0 -129 -76.5 -204t-224.5 -75t-224.5 75.5t-76.5 202.5zM221 723l92 144h114l94 -144h-78l-73 89l-71 -89h-78z" />
<glyph unicode="&#xdc;" horiz-adv-x="733" d="M66 266v401h144v-396q0 -72 41 -114.5t116 -42.5t115.5 42.5t40.5 114.5v396h145v-400q0 -129 -76.5 -204t-224.5 -75t-224.5 75.5t-76.5 202.5zM196 778q0 28 20 47.5t48 19.5t47.5 -19.5t19.5 -47.5t-19.5 -48t-47.5 -20t-48 20t-20 48zM407 778q0 28 20 47.5t48 19.5 t48 -19.5t20 -47.5t-20 -48t-48 -20t-48 20t-20 48z" />
<glyph unicode="&#xdd;" horiz-adv-x="645" d="M-5 667h162l166 -268l164 268h162l-255 -394v-273h-142v273zM259 723l134 144h117l-162 -144h-89z" />
<glyph unicode="&#xde;" horiz-adv-x="624" d="M66 0v667h142v-108h170q105 0 164.5 -62t59.5 -154q0 -91 -60 -152t-164 -61h-170v-130h-142zM208 255h149q44 0 72 24t28 65t-28.5 65.5t-71.5 24.5h-149v-179z" />
<glyph unicode="&#xdf;" horiz-adv-x="643" d="M63 0v475q0 86 62 144t167 58q83 0 144.5 -40t61.5 -105q0 -38 -20.5 -67.5t-45.5 -44t-45.5 -34t-20.5 -38.5t27 -29t65 -17.5t76.5 -21t65.5 -48t27 -88.5q0 -68 -55 -112t-146 -44q-66 0 -111 19.5t-86 56.5l54 88q21 -27 60.5 -46t82.5 -19q38 0 58.5 15t20.5 37 q0 21 -27 33.5t-65.5 21t-76.5 22t-65 45.5t-27 83q0 29 12.5 53t31 39.5t36.5 28t30.5 25t12.5 24.5q0 23 -23 36.5t-54 13.5q-43 0 -71.5 -24t-28.5 -65v-475h-127z" />
<glyph unicode="&#xe0;" horiz-adv-x="543" d="M32 148q0 78 50.5 117t117.5 39q103 0 153 -59v65q0 37 -29 59t-77 22q-79 0 -141 -57l-48 85q86 76 211 76q93 0 152 -43t59 -140v-312h-127v50q-52 -62 -153 -62q-65 0 -116.5 42.5t-51.5 117.5zM81 700h116l135 -144h-89zM160 145q0 -33 26 -52t65 -19q71 0 102 42v60 q-31 42 -102 42q-39 0 -65 -19.5t-26 -53.5z" />
<glyph unicode="&#xe1;" horiz-adv-x="543" d="M32 148q0 78 50.5 117t117.5 39q103 0 153 -59v65q0 37 -29 59t-77 22q-79 0 -141 -57l-48 85q86 76 211 76q93 0 152 -43t59 -140v-312h-127v50q-52 -62 -153 -62q-65 0 -116.5 42.5t-51.5 117.5zM160 145q0 -33 26 -52t65 -19q71 0 102 42v60q-31 42 -102 42 q-39 0 -65 -19.5t-26 -53.5zM205 556l134 144h117l-162 -144h-89z" />
<glyph unicode="&#xe2;" horiz-adv-x="543" d="M32 148q0 78 50.5 117t117.5 39q103 0 153 -59v65q0 37 -29 59t-77 22q-79 0 -141 -57l-48 85q86 76 211 76q93 0 152 -43t59 -140v-312h-127v50q-52 -62 -153 -62q-65 0 -116.5 42.5t-51.5 117.5zM121 556l92 144h114l94 -144h-78l-73 89l-71 -89h-78zM160 145 q0 -33 26 -52t65 -19q71 0 102 42v60q-31 42 -102 42q-39 0 -65 -19.5t-26 -53.5z" />
<glyph unicode="&#xe3;" horiz-adv-x="543" d="M32 148q0 78 50.5 117t117.5 39q103 0 153 -59v65q0 37 -29 59t-77 22q-79 0 -141 -57l-48 85q86 76 211 76q93 0 152 -43t59 -140v-312h-127v50q-52 -62 -153 -62q-65 0 -116.5 42.5t-51.5 117.5zM106 560q0 64 28 99t80 35q28 0 49 -17t36.5 -33.5t30.5 -16.5 q36 0 36 61h67q0 -64 -27.5 -99t-79.5 -35q-29 0 -50 17t-36.5 34t-30.5 17q-36 0 -36 -62h-67zM160 145q0 -33 26 -52t65 -19q71 0 102 42v60q-31 42 -102 42q-39 0 -65 -19.5t-26 -53.5z" />
<glyph unicode="&#xe4;" horiz-adv-x="543" d="M32 148q0 78 50.5 117t117.5 39q103 0 153 -59v65q0 37 -29 59t-77 22q-79 0 -141 -57l-48 85q86 76 211 76q93 0 152 -43t59 -140v-312h-127v50q-52 -62 -153 -62q-65 0 -116.5 42.5t-51.5 117.5zM96 611q0 28 20 47.5t48 19.5t47.5 -19.5t19.5 -47.5t-19.5 -48 t-47.5 -20t-48 19.5t-20 48.5zM160 145q0 -33 26 -52t65 -19q71 0 102 42v60q-31 42 -102 42q-39 0 -65 -19.5t-26 -53.5zM307 611q0 28 20 47.5t48 19.5t48 -19.5t20 -47.5t-20 -48t-48 -20t-48 20t-20 48z" />
<glyph unicode="&#xe5;" horiz-adv-x="543" d="M32 148q0 78 50.5 117t117.5 39q103 0 153 -59v65q0 37 -29 59t-77 22q-79 0 -141 -57l-48 85q86 76 211 76q93 0 152 -43t59 -140v-312h-127v50q-52 -62 -153 -62q-65 0 -116.5 42.5t-51.5 117.5zM160 145q0 -33 26 -52t65 -19q71 0 102 42v60q-31 42 -102 42 q-39 0 -65 -19.5t-26 -53.5zM166 636q0 43 31 74.5t74 31.5t73.5 -31.5t30.5 -74.5q0 -44 -30.5 -74.5t-73.5 -30.5t-74 31t-31 74zM224 636q0 -19 14 -33t33 -14t32.5 14t13.5 33q0 20 -13.5 33.5t-32.5 13.5t-33 -14t-14 -33z" />
<glyph unicode="&#xe6;" horiz-adv-x="870" d="M32 146q0 76 50 117t125 41q109 0 165 -58v65q0 36 -31.5 58t-83.5 22q-83 0 -151 -57l-48 85q86 76 214 76q127 0 169 -83q63 83 175 83q100 0 162.5 -73.5t62.5 -192.5v-28h-341q7 -47 41 -78t89 -31q74 0 119 47l57 -84q-35 -32 -86 -49.5t-99 -17.5q-125 0 -186 88 q-31 -39 -84.5 -63.5t-116.5 -24.5q-86 0 -144 40.5t-58 117.5zM160 153q0 -31 27.5 -48t68.5 -17q46 0 81 25.5t35 55.5v6q-38 43 -113 43q-43 0 -71 -17t-28 -48zM498 287h220q-2 41 -29.5 74t-80.5 33q-50 0 -78 -32.5t-32 -74.5z" />
<glyph unicode="&#xe7;" horiz-adv-x="499" d="M32 242q0 111 72 182t184 71q128 0 191 -87l-83 -78q-35 52 -102 52q-58 0 -94.5 -38.5t-36.5 -101.5t36.5 -102t94.5 -39q65 0 102 52l83 -77q-55 -78 -164 -87l-16 -38q17 10 36 10q28 0 47.5 -19.5t19.5 -50.5q0 -39 -32 -62t-79 -23q-70 0 -110 32l25 51 q38 -29 81 -29q22 0 37 8.5t15 24.5q0 26 -29 26q-18 0 -32 -14l-46 26l21 59q-99 11 -160 80t-61 172z" />
<glyph unicode="&#xe8;" horiz-adv-x="553" d="M32 242q0 107 70.5 180t179.5 73q108 0 175 -73.5t67 -192.5v-28h-359q6 -48 43 -80t96 -32q32 0 69.5 13t59.5 35l56 -82q-73 -67 -199 -67q-112 0 -185 70t-73 184zM95 700h116l135 -144h-89zM163 287h238q-3 41 -32.5 74t-86.5 33q-54 0 -84 -32.5t-35 -74.5z" />
<glyph unicode="&#xe9;" horiz-adv-x="553" d="M32 242q0 107 70.5 180t179.5 73q108 0 175 -73.5t67 -192.5v-28h-359q6 -48 43 -80t96 -32q32 0 69.5 13t59.5 35l56 -82q-73 -67 -199 -67q-112 0 -185 70t-73 184zM163 287h238q-3 41 -32.5 74t-86.5 33q-54 0 -84 -32.5t-35 -74.5zM219 556l134 144h117l-162 -144 h-89z" />
<glyph unicode="&#xea;" horiz-adv-x="553" d="M32 242q0 107 70.5 180t179.5 73q108 0 175 -73.5t67 -192.5v-28h-359q6 -48 43 -80t96 -32q32 0 69.5 13t59.5 35l56 -82q-73 -67 -199 -67q-112 0 -185 70t-73 184zM133 556l92 144h114l94 -144h-78l-73 89l-71 -89h-78zM163 287h238q-3 41 -32.5 74t-86.5 33 q-54 0 -84 -32.5t-35 -74.5z" />
<glyph unicode="&#xeb;" horiz-adv-x="553" d="M32 242q0 107 70.5 180t179.5 73q108 0 175 -73.5t67 -192.5v-28h-359q6 -48 43 -80t96 -32q32 0 69.5 13t59.5 35l56 -82q-73 -67 -199 -67q-112 0 -185 70t-73 184zM110 611q0 28 20 47.5t48 19.5t47.5 -19.5t19.5 -47.5t-19.5 -48t-47.5 -20t-48 19.5t-20 48.5z M163 287h238q-3 41 -32.5 74t-86.5 33q-54 0 -84 -32.5t-35 -74.5zM321 611q0 28 20 47.5t48 19.5t48 -19.5t20 -47.5t-20 -48t-48 -20t-48 20t-20 48z" />
<glyph unicode="&#xec;" horiz-adv-x="253" d="M-61 700h116l135 -144h-89zM63 0v483h127v-483h-127z" />
<glyph unicode="&#xed;" horiz-adv-x="253" d="M63 0v483h127v-483h-127zM63 556l134 144h117l-162 -144h-89z" />
<glyph unicode="&#xee;" horiz-adv-x="253" d="M-24 556l92 144h114l94 -144h-78l-73 89l-71 -89h-78zM63 0v483h127v-483h-127z" />
<glyph unicode="&#xef;" horiz-adv-x="253" d="M-47 611q0 28 20 47.5t48 19.5t47.5 -19.5t19.5 -47.5t-19.5 -48t-47.5 -20q-29 0 -48.5 19.5t-19.5 48.5zM63 0v483h127v-483h-127zM164 611q0 28 20 47.5t48 19.5t48 -19.5t20 -47.5t-20 -48t-48 -20t-48 20t-20 48z" />
<glyph unicode="&#xf0;" horiz-adv-x="574" d="M32 224q0 103 61.5 169.5t152.5 66.5q101 0 160 -93q-36 81 -157 166l-146 -64l-25 60l107 47q-8 5 -61 37l69 103q79 -48 123 -83l103 45l25 -58l-73 -32q172 -153 172 -336q0 -119 -69 -191.5t-187 -72.5q-114 0 -184.5 66t-70.5 170zM164 224q0 -52 33 -87.5t90 -35.5 t90.5 35.5t33.5 87.5t-33.5 87.5t-90.5 35.5t-90 -35.5t-33 -87.5z" />
<glyph unicode="&#xf1;" horiz-adv-x="579" d="M63 0v483h127v-63q63 75 169 75q78 0 117.5 -41t39.5 -113v-341h-127v292q0 90 -89 90q-69 0 -110 -57v-325h-127zM127 560q0 64 28 99t80 35q28 0 49 -17t36.5 -33.5t30.5 -16.5q36 0 36 61h67q0 -64 -27.5 -99t-79.5 -35q-29 0 -50 17t-36.5 34t-30.5 17q-36 0 -36 -62 h-67z" />
<glyph unicode="&#xf2;" horiz-adv-x="574" d="M32 242q0 107 69.5 180t185.5 73t186 -73t70 -180t-70 -180.5t-186 -73.5t-185.5 73.5t-69.5 180.5zM100 700h116l135 -144h-89zM164 242q0 -60 33 -100.5t90 -40.5t90.5 40.5t33.5 100.5q0 59 -33.5 99.5t-90.5 40.5t-90 -40.5t-33 -99.5z" />
<glyph unicode="&#xf3;" horiz-adv-x="574" d="M32 242q0 107 69.5 180t185.5 73t186 -73t70 -180t-70 -180.5t-186 -73.5t-185.5 73.5t-69.5 180.5zM164 242q0 -60 33 -100.5t90 -40.5t90.5 40.5t33.5 100.5q0 59 -33.5 99.5t-90.5 40.5t-90 -40.5t-33 -99.5zM224 556l134 144h117l-162 -144h-89z" />
<glyph unicode="&#xf4;" horiz-adv-x="574" d="M32 242q0 107 69.5 180t185.5 73t186 -73t70 -180t-70 -180.5t-186 -73.5t-185.5 73.5t-69.5 180.5zM137 556l92 144h114l94 -144h-78l-73 89l-71 -89h-78zM164 242q0 -60 33 -100.5t90 -40.5t90.5 40.5t33.5 100.5q0 59 -33.5 99.5t-90.5 40.5t-90 -40.5t-33 -99.5z" />
<glyph unicode="&#xf5;" horiz-adv-x="574" d="M32 242q0 107 69.5 180t185.5 73t186 -73t70 -180t-70 -180.5t-186 -73.5t-185.5 73.5t-69.5 180.5zM124 560q0 64 28 99t80 35q28 0 49 -17t36.5 -33.5t30.5 -16.5q36 0 36 61h67q0 -64 -27.5 -99t-79.5 -35q-29 0 -50 17t-36.5 34t-30.5 17q-36 0 -36 -62h-67zM164 242 q0 -60 33 -100.5t90 -40.5t90.5 40.5t33.5 100.5q0 59 -33.5 99.5t-90.5 40.5t-90 -40.5t-33 -99.5z" />
<glyph unicode="&#xf6;" horiz-adv-x="574" d="M32 242q0 107 69.5 180t185.5 73t186 -73t70 -180t-70 -180.5t-186 -73.5t-185.5 73.5t-69.5 180.5zM114 611q0 28 20 47.5t48 19.5t47.5 -19.5t19.5 -47.5t-19.5 -48t-47.5 -20t-48 19.5t-20 48.5zM164 242q0 -60 33 -100.5t90 -40.5t90.5 40.5t33.5 100.5 q0 59 -33.5 99.5t-90.5 40.5t-90 -40.5t-33 -99.5zM325 611q0 28 20 47.5t48 19.5t48 -19.5t20 -47.5t-20 -48t-48 -20t-48 20t-20 48z" />
<glyph unicode="&#xf7;" horiz-adv-x="511" d="M29 298v79h453v-79h-453zM194 157q0 25 18 43t43 18t43 -18t18 -43t-18 -43t-43 -18t-43 18t-18 43zM194 516q0 25 18 42.5t43 17.5t43 -17.5t18 -42.5q0 -26 -18 -44t-43 -18t-43 18t-18 44z" />
<glyph unicode="&#xf8;" horiz-adv-x="574" d="M32 242q0 107 69.5 180t185.5 73q81 0 141 -38l22 26h80l-55 -64q68 -71 68 -177q0 -107 -70 -180.5t-186 -73.5q-85 0 -145 40l-24 -28h-78l57 67q-65 71 -65 175zM164 242q0 -42 17 -76l169 199q-28 17 -63 17q-57 0 -90 -40.5t-33 -99.5zM220 120q26 -19 67 -19 q57 0 90.5 40.5t33.5 100.5q0 44 -20 79z" />
<glyph unicode="&#xf9;" horiz-adv-x="579" d="M63 140v343h127v-293q0 -89 89 -89q67 0 110 55v327h127v-483h-127v61q-65 -73 -170 -73q-78 0 -117 40t-39 112zM102 700h116l135 -144h-89z" />
<glyph unicode="&#xfa;" horiz-adv-x="579" d="M63 140v343h127v-293q0 -89 89 -89q67 0 110 55v327h127v-483h-127v61q-65 -73 -170 -73q-78 0 -117 40t-39 112zM225 556l134 144h117l-162 -144h-89z" />
<glyph unicode="&#xfb;" horiz-adv-x="579" d="M63 140v343h127v-293q0 -89 89 -89q67 0 110 55v327h127v-483h-127v61q-65 -73 -170 -73q-78 0 -117 40t-39 112zM140 556l92 144h114l94 -144h-78l-73 89l-71 -89h-78z" />
<glyph unicode="&#xfc;" horiz-adv-x="579" d="M63 140v343h127v-293q0 -89 89 -89q67 0 110 55v327h127v-483h-127v61q-65 -73 -170 -73q-78 0 -117 40t-39 112zM116 611q0 28 20 47.5t48 19.5t47.5 -19.5t19.5 -47.5t-19.5 -48t-47.5 -20t-48 19.5t-20 48.5zM327 611q0 28 20 47.5t48 19.5t48 -19.5t20 -47.5t-20 -48 t-48 -20t-48 20t-20 48z" />
<glyph unicode="&#xfd;" horiz-adv-x="513" d="M-6 483h136l126 -336l126 336h137l-227 -562q-25 -64 -70 -89.5t-113 -27.5q-35 0 -63 7l19 114q18 -8 40 -8q51 0 67 35l18 41zM192 556l134 144h117l-162 -144h-89z" />
<glyph unicode="&#xfe;" horiz-adv-x="583" d="M63 -184v851h127v-245q57 73 149 73q95 0 154.5 -67.5t59.5 -185.5t-59.5 -186t-154.5 -68q-91 0 -149 74v-246h-127zM190 156q16 -23 47.5 -39t61.5 -16q55 0 88.5 39t33.5 102q0 62 -33.5 101t-88.5 39q-31 0 -62 -16t-47 -39v-171z" />
<glyph unicode="&#xff;" horiz-adv-x="513" d="M-6 483h136l126 -336l126 336h137l-227 -562q-25 -64 -70 -89.5t-113 -27.5q-35 0 -63 7l19 114q18 -8 40 -8q51 0 67 35l18 41zM83 611q0 28 20 47.5t48 19.5t47.5 -19.5t19.5 -47.5t-19.5 -48t-47.5 -20q-29 0 -48.5 19.5t-19.5 48.5zM294 611q0 28 20 47.5t48 19.5 t48 -19.5t20 -47.5t-20 -48t-48 -20t-48 20t-20 48z" />
<glyph unicode="&#x152;" horiz-adv-x="1084" d="M34 333q0 151 94 247.5t240 96.5q58 0 113.5 -23t87.5 -66v79h472v-125h-329v-141h322v-125h-322v-151h329v-125h-472v78q-32 -43 -87.5 -66.5t-113.5 -23.5q-146 0 -240 97t-94 248zM180 333q0 -95 56.5 -157t151.5 -62q61 0 109 30.5t72 85.5v206q-24 56 -71.5 85.5 t-109.5 29.5q-95 0 -151.5 -61t-56.5 -157z" />
<glyph unicode="&#x153;" horiz-adv-x="931" d="M32 242q0 107 69.5 180t185.5 73q112 0 189 -108q69 108 185 108q108 0 174.5 -73.5t66.5 -192.5v-28h-358q7 -48 43.5 -80t95.5 -32q76 0 128 47l57 -81q-75 -67 -199 -67q-120 0 -194 107q-74 -107 -188 -107q-116 0 -185.5 73.5t-69.5 180.5zM164 242q0 -63 34 -102.5 t89 -39.5q56 0 90 39.5t34 102.5q0 62 -34 101t-90 39q-55 0 -89 -39t-34 -101zM542 287h238q-3 41 -33 74t-87 33q-54 0 -84 -32.5t-34 -74.5z" />
<glyph unicode="&#x178;" horiz-adv-x="645" d="M-5 667h162l166 -268l164 268h162l-255 -394v-273h-142v273zM150 778q0 28 20 47.5t48 19.5t47.5 -19.5t19.5 -47.5t-19.5 -48t-47.5 -20t-48 20t-20 48zM361 778q0 28 20 47.5t48 19.5t48 -19.5t20 -47.5t-20 -48t-48 -20t-48 20t-20 48z" />
<glyph unicode="&#x2c6;" horiz-adv-x="300" d="M0 556l92 144h114l94 -144h-78l-73 89l-71 -89h-78z" />
<glyph unicode="&#x2dc;" horiz-adv-x="327" d="M0 560q0 64 28 99t80 35q28 0 49 -17t36.5 -33.5t30.5 -16.5q36 0 36 61h67q0 -64 -27.5 -99t-79.5 -35q-29 0 -50 17t-36.5 34t-30.5 17q-36 0 -36 -62h-67z" />
<glyph unicode="&#x2000;" horiz-adv-x="449" />
<glyph unicode="&#x2001;" horiz-adv-x="899" />
<glyph unicode="&#x2002;" horiz-adv-x="449" />
<glyph unicode="&#x2003;" horiz-adv-x="899" />
<glyph unicode="&#x2004;" horiz-adv-x="299" />
<glyph unicode="&#x2005;" horiz-adv-x="224" />
<glyph unicode="&#x2006;" horiz-adv-x="149" />
<glyph unicode="&#x2007;" horiz-adv-x="149" />
<glyph unicode="&#x2008;" horiz-adv-x="112" />
<glyph unicode="&#x2009;" horiz-adv-x="179" />
<glyph unicode="&#x200a;" horiz-adv-x="49" />
<glyph unicode="&#x2010;" horiz-adv-x="300" d="M30 188v108h240v-108h-240z" />
<glyph unicode="&#x2011;" horiz-adv-x="300" d="M30 188v108h240v-108h-240z" />
<glyph unicode="&#x2012;" horiz-adv-x="300" d="M30 188v108h240v-108h-240z" />
<glyph unicode="&#x2013;" horiz-adv-x="593" d="M30 188v108h533v-108h-533z" />
<glyph unicode="&#x2014;" horiz-adv-x="833" d="M30 188v108h773v-108h-773z" />
<glyph unicode="&#x2018;" horiz-adv-x="255" d="M38 492q0 55 28 103.5t76 81.5l55 -44q-25 -13 -48 -41t-30 -54q4 3 20 3q29 0 48.5 -20t19.5 -52t-23.5 -55.5t-55.5 -23.5q-37 0 -63.5 27.5t-26.5 74.5z" />
<glyph unicode="&#x2019;" horiz-adv-x="255" d="M47 597q0 33 23 56.5t55 23.5q37 0 63.5 -27.5t26.5 -74.5q0 -55 -28 -103.5t-75 -82.5l-55 45q25 13 48 41t29 54q-6 -4 -19 -4q-29 0 -48.5 20.5t-19.5 51.5z" />
<glyph unicode="&#x201a;" d="M47 71q0 33 23 56.5t55 23.5q37 0 63.5 -27.5t26.5 -74.5q0 -55 -28 -103.5t-75 -82.5l-55 45q25 13 48 40.5t29 53.5q-9 -3 -19 -3q-29 0 -48.5 20t-19.5 52z" />
<glyph unicode="&#x201c;" horiz-adv-x="459" d="M40 492q0 55 27.5 103.5t75.5 81.5l55 -44q-25 -13 -48 -41t-30 -54q4 3 20 3q29 0 48.5 -20t19.5 -52t-23.5 -55.5t-55.5 -23.5q-37 0 -63 27.5t-26 74.5zM244 492q0 55 27.5 103.5t74.5 81.5l56 -44q-25 -13 -48.5 -41t-29.5 -54q4 3 20 3q28 0 47.5 -20t19.5 -52 t-23 -55.5t-56 -23.5q-37 0 -62.5 27.5t-25.5 74.5z" />
<glyph unicode="&#x201d;" horiz-adv-x="459" d="M47 597q0 33 23 56.5t55 23.5q37 0 63.5 -27.5t26.5 -74.5q0 -55 -28 -103.5t-75 -82.5l-55 45q25 13 48 41t29 54q-6 -4 -19 -4q-29 0 -48.5 20.5t-19.5 51.5zM250 597q0 33 23.5 56.5t55.5 23.5q37 0 63 -27.5t26 -74.5q0 -55 -27.5 -103.5t-75.5 -82.5l-55 45 q25 13 48 41t30 54q-8 -4 -20 -4q-29 0 -48.5 20.5t-19.5 51.5z" />
<glyph unicode="&#x201e;" horiz-adv-x="459" d="M47 71q0 33 23 56.5t55 23.5q37 0 63.5 -27.5t26.5 -74.5q0 -55 -28 -103.5t-75 -82.5l-55 45q25 13 48 40.5t29 53.5q-9 -3 -19 -3q-29 0 -48.5 20t-19.5 52zM250 71q0 33 23.5 56.5t55.5 23.5q37 0 63 -27.5t26 -74.5q0 -55 -27.5 -103.5t-75.5 -82.5l-55 45 q25 13 48 40.5t30 53.5q-12 -3 -20 -3q-29 0 -48.5 20t-19.5 52z" />
<glyph unicode="&#x2022;" horiz-adv-x="358" d="M61 242q0 50 34.5 84.5t84.5 34.5t84.5 -34.5t34.5 -84.5q0 -49 -35 -83.5t-84 -34.5t-84 34.5t-35 83.5z" />
<glyph unicode="&#x2026;" horiz-adv-x="768" d="M47 70q0 33 23.5 57t56.5 24t57 -24t24 -57q0 -32 -24 -56t-57 -24t-56.5 24t-23.5 56zM303 70q0 33 23.5 57t56.5 24t57 -24t24 -57q0 -32 -24 -56t-57 -24t-56.5 24t-23.5 56zM559 70q0 33 23.5 57t56.5 24t57 -24t24 -57q0 -32 -24 -56t-57 -24t-56.5 24t-23.5 56z " />
<glyph unicode="&#x202f;" horiz-adv-x="179" />
<glyph unicode="&#x2039;" horiz-adv-x="337" d="M30 243l160 177h117l-160 -177l160 -180h-117z" />
<glyph unicode="&#x203a;" horiz-adv-x="337" d="M30 63l160 180l-160 177h117l160 -177l-160 -180h-117z" />
<glyph unicode="&#x205f;" horiz-adv-x="224" />
<glyph unicode="&#x20ac;" horiz-adv-x="709" d="M21 226v76h37q-1 10 -1 31q0 23 1 34h-37v75h52q33 108 125 172t214 64q187 0 279 -163l-122 -60q-22 42 -64.5 69.5t-92.5 27.5q-61 0 -109 -29.5t-75 -80.5h245v-75h-268q-2 -11 -2 -34q0 -11 2 -31h268v-76h-246q26 -52 75 -82t110 -30q50 0 92.5 27t64.5 70l122 -59 q-95 -164 -279 -164q-122 0 -214.5 64.5t-125.5 173.5h-51z" />
<glyph unicode="&#x2122;" horiz-adv-x="454" d="M17 641v26h152v-26h-62v-194h-28v194h-62zM205 447v220h43l64 -160l64 160h43v-220h-28v182l-75 -182h-8l-75 182v-182h-28z" />
<glyph unicode="&#xe000;" horiz-adv-x="485" d="M0 0v485h485v-485h-485z" />
</font>
</defs>
</svg>
